<svg xmlns="http://www.w3.org/2000/svg">
<defs>
<font id="TypoGraphica" horiz-adv-x="1223" >
  <font-face 
    font-family="TypoGraphica"
    font-weight="400"
    font-stretch="normal"
    units-per-em="2048"
    panose-1="2 0 5 0 0 0 0 0 0 0"
    ascent="1638"
    descent="-410"
    x-height="1023"
    cap-height="1419"
    bbox="0 -583 2418 1900"
    underline-thickness="150"
    underline-position="-142"
    unicode-range="U+001D-U+042F"
  />
<missing-glyph horiz-adv-x="2459" 
d="M421 417v325h66v-96q11 11 24 17q14 6 28 6q80 0 80 -102v-150h-66v145q0 41 -33 41t-33 -41v-145h-66zM731 485q12 -5 22 -5t22 5q9 4 18 13q7 7 12 19q4 11 4 24q0 14 -4 23q-5 12 -12 19q-8 10 -18 14q-9 4 -22 4t-22 -4q-10 -4 -18 -14q-7 -7 -12 -19t-5 -23t5 -24
q5 -12 12 -19q9 -9 18 -13zM877 671v-254h-65v33h-2q-16 -33 -66 -33q-24 -1 -45 9q-22 11 -38 26q-16 16 -25 39q-10 22 -9 47q-1 24 8 48q10 24 25 41q16 18 38 28q20 10 46 10q46 0 73 -29zM896 671h65v-41q7 18 13 27q9 12 15 16q12 6 22 7q16 2 28 2l-21 -76
q-27 0 -38 -12q-11 -13 -11 -41v-136h-73v254zM1046 742h72v-185h1l53 113h87l-63 -124l76 -129h-89l-64 110h-1v-110h-72v325zM1300 495q22 -22 52 -22q32 0 32 19q0 11 -18 15q-9 4 -19 5q-10 2 -21 6q-9 3 -20 8q-8 4 -17 14q-6 6 -11 21q-4 11 -4 29q0 20 7 34
q7 13 20 24q12 11 28 15q15 4 35 4q21 0 42 -9q20 -9 36 -24l-39 -41q-17 14 -38 14q-24 0 -24 -14q0 -13 17 -18q10 -3 30 -7q18 -5 31 -12t24 -23q10 -14 8 -40q0 -21 -7 -35t-21 -25q-12 -10 -30 -16q-18 -5 -35 -5q-19 0 -27 1q-12 1 -23 6l-11 5l-11 5l-11 8l-12 8z
M1459 417v325h67v-96q9 11 23 17t28 6q81 0 81 -102v-150h-67v145q0 41 -33 41q-32 0 -32 -41v-145h-67zM1796 482q23 0 42 18q18 17 18 42q0 10 -5 22q-4 11 -13 19q-8 9 -19 13q-12 5 -23 5q-10 0 -22 -5q-10 -4 -19 -13q-8 -8 -13 -19q-5 -12 -5 -22q0 -25 18 -42
q20 -18 41 -18zM1705 452q-18 17 -29 41q-11 25 -10 49q0 26 11 50q12 25 28 40q19 17 42 26t49 9t50 -9q21 -9 42 -26q18 -17 29 -40q10 -21 10 -50t-10 -50q-11 -23 -29 -40q-19 -18 -42 -27q-23 -10 -50 -10q-25 0 -48 10q-23 9 -43 27zM2102 586q-23 17 -47 17

<glyph glyph-name=".notdef" horiz-adv-x="2459" 
d="M421 417v325h66v-96q11 11 24 17q14 6 28 6q80 0 80 -102v-150h-66v145q0 41 -33 41t-33 -41v-145h-66zM731 485q12 -5 22 -5t22 5q9 4 18 13q7 7 12 19q4 11 4 24q0 14 -4 23q-5 12 -12 19q-8 10 -18 14q-9 4 -22 4t-22 -4q-10 -4 -18 -14q-7 -7 -12 -19t-5 -23t5 -24
q5 -12 12 -19q9 -9 18 -13zM877 671v-254h-65v33h-2q-16 -33 -66 -33q-24 -1 -45 9q-22 11 -38 26q-16 16 -25 39q-10 22 -9 47q-1 24 8 48q10 24 25 41q16 18 38 28q20 10 46 10q46 0 73 -29zM896 671h65v-41q7 18 13 27q9 12 15 16q12 6 22 7q16 2 28 2l-21 -76
q-27 0 -38 -12q-11 -13 -11 -41v-136h-73v254zM1046 742h72v-185h1l53 113h87l-63 -124l76 -129h-89l-64 110h-1v-110h-72v325zM1300 495q22 -22 52 -22q32 0 32 19q0 11 -18 15q-9 4 -19 5q-10 2 -21 6q-9 3 -20 8q-8 4 -17 14q-6 6 -11 21q-4 11 -4 29q0 20 7 34
q7 13 20 24q12 11 28 15q15 4 35 4q21 0 42 -9q20 -9 36 -24l-39 -41q-17 14 -38 14q-24 0 -24 -14q0 -13 17 -18q10 -3 30 -7q18 -5 31 -12t24 -23q10 -14 8 -40q0 -21 -7 -35t-21 -25q-12 -10 -30 -16q-18 -5 -35 -5q-19 0 -27 1q-12 1 -23 6l-11 5l-11 5l-11 8l-12 8z
M1459 417v325h67v-96q9 11 23 17t28 6q81 0 81 -102v-150h-67v145q0 41 -33 41q-32 0 -32 -41v-145h-67zM1796 482q23 0 42 18q18 17 18 42q0 10 -5 22q-4 11 -13 19q-8 9 -19 13q-12 5 -23 5q-10 0 -22 -5q-10 -4 -19 -13q-8 -8 -13 -19q-5 -12 -5 -22q0 -25 18 -42
q20 -18 41 -18zM1705 452q-18 17 -29 41q-11 25 -10 49q0 26 11 50q12 25 28 40q19 17 42 26t49 9t50 -9q21 -9 42 -26q18 -17 29 -40q10 -21 10 -50t-10 -50q-11 -23 -29 -40q-19 -18 -42 -27q-23 -10 -50 -10q-25 0 -48 10q-23 9 -43 27zM2102 586q-23 17 -47 17
q-25 0 -42 -17t-17 -42q0 -13 5 -26q4 -11 12 -22q8 -10 18 -14q12 -5 25 -5q28 0 47 18v-72q-14 -8 -25 -9q-16 -2 -23 -2q-29 -2 -53 9q-26 11 -42 28q-17 16 -27 40q-10 22 -9 46q0 29 9 54q11 26 28 42q18 18 42 27t52 9q28 3 47 -7v-74zM2122 742h72v-185h1l52 113h88
l-64 -124l76 -129h-88l-64 110h-1v-110h-72v325zM2382 768q13 0 22 -9t9 -22t-9 -22t-22 -9t-22 9t-9 22t9 22t22 9zM2382 700q14 0 25 11t11 26q0 14 -11 25t-25 11q-15 0 -26 -11q-10 -10 -10 -25q0 -16 10 -26q11 -11 26 -11zM2371 740h17l3 3q1 1 1 3q0 3 -2 5t-6 2h-13
v-13zM2365 717v40h18q7 0 8 -1q4 -2 5 -3q2 -4 2 -7q0 -4 -3 -7t-9 -3q2 -2 4 -2l2 -3l2 -3l7 -11h-7l-5 9l-2 3l-2 2l-3 3q-1 1 -2 1h-9v-18h-6zM1403 1369l1 1zM1285 1445v14l-6 -21q5 -5 7 -8zM1487 1188q0 -31 -31 -90q-4 -24 -21 -41q-17 -41 -59 -89q-3 -4 -5 -7
q-4 -4 -8 -7q-6 -7 -11 -12l-8 -8l-3 -3l-2 -2l-1 -1q-7 -10 -17 -28l-13 -31l-16 -26l-11 -12l-5 -10l-1 -1l-1 -2q-1 -2 -3 -3q-1 -1 -2 -1h-1l-1 1q-2 -2 -3 -2h-1q-1 1 -1 2q-1 -1 -3 -1h-1q-2 2 -2 5v3l3 11l9 21q7 13 7 18v1q-2 6 -2 9q0 16 27 20l1 2v4q0 16 7 31
q3 9 9 22q13 28 28 34q2 11 6 18q1 3 13 20q9 11 12 20q1 2 1 7v6l1 6q0 11 3 18v1q0 12 20 29l3 4l3 4q-7 1 -12 22l-3 18t-3 16q-9 1 -17 13v-4q0 -20 -10 -20q-11 0 -25 18q0 -14 -8 -22q-6 -7 -15 -7q-22 1 -22 31q-16 -21 -24 -21q-2 0 -4 2q-3 5 -6 40
q-16 -21 -26 -21q-3 0 -5 2q-6 5 -6 20q0 3 2 17q-7 -7 -17 -7q-8 0 -16 6q-5 7 -5 12v2q2 8 14 14q-30 0 -38 8q4 5 16 7q13 1 17 4q3 1 8 6q-6 -2 -8 -2q-3 0 -5 2q-5 3 -5 13v3q-13 -19 -19 -19q-2 0 -2 3l2 14l1 6l1 6q2 6 2 8q-25 -26 -25 -28l-1 2v2q0 11 6 27
q-19 -19 -28 -19q-5 0 -5 9q0 3 2 17q-14 -27 -25 -31v5q0 8 6 20q5 8 8 16l2 6l1 2v1q-5 -4 -16 -18q-9 -12 -16 -15v-1q1 0 3 11q2 12 4 31q-9 -9 -18 -9h-2q-9 1 -10 13q0 8 8 19q9 11 9 18q-21 -12 -25 -13q-3 -1 -9 -1q-7 0 -10 6q-1 2 -1 7q0 8 9 18q11 13 22 14
q-16 -2 -20 -2q-17 0 -19 11v2q0 9 12 15l2 1l2 1l7 3l5 2l4 2q-24 11 -24 17q0 1 1 2t35 12q-1 2 -8 7q-7 7 -9 8q-6 8 -6 13q0 4 1 6q1 1 5 1q6 0 18 -5t18 -5h3l-15 22q-4 7 -4 11q0 6 7 6h1q10 0 20 -13q14 -16 18 -18q-18 82 -23 82l-1 -1q24 -13 49 -73q-11 32 -12 68
l-1 6v5q0 23 8 23h2l3 -1h-1v-1q0 -7 21 -58l1 -3l1 -3q1 -4 3 -7q3 -11 8 -22q10 -20 13 -36q-16 68 -16 115q0 52 21 65q10 -7 10 -31v-8q0 -6 -1 -11t-1 -10v-6q2 -16 6 -41q3 -13 5 -25l1 -9l1 -6q0 109 30 157q9 -4 9 -29q0 -14 -3 -35q-9 -67 -9 -74v-1q0 1 1 4
q1 2 2 6q2 9 5 21q3 14 7 29q3 10 7 22q19 61 37 61q2 0 3 -1q-2 -25 -20 -66q-19 -43 -22 -68q14 41 38 74q31 43 68 51q-1 -21 -60 -72q-35 -56 -35 -111v-13l1 -7q1 -12 8 -27q13 71 80 150q32 39 64 65h11q-42 -23 -78 -85q52 38 125 40l-3 -11q-121 -3 -147 -90
q-7 -21 -7 -49q0 -38 15 -88l4 -2l2 -2q13 -13 31 -58q0 7 8 15q8 6 16 6h2v-1l17 14q-11 -9 -14 -14h3l2 -1h1q7 4 7 9v-1q0 -2 -2 -6l6 4l-8 -6l1 -1l8 4l-7 -5h1q5 1 9 7q-1 -4 -7 -8l17 2q2 -2 2 -3v-1l-2 -2h6q1 0 1 -1q0 -2 -1 -3q3 0 3 -3v-3q7 0 8 -4v-2q0 -2 -3 -5
q-6 -6 -6 -10v-1q1 -3 4 -8l2 -5l2 -4q6 -6 8 -9l1 1v-1q1 1 3 1q9 0 16 -10q10 -10 13 -28q1 -4 1 -12q0 -14 -6 -23q2 -16 2 -21v-2zM89 306l52 105l-121 100l366 230v-89l-86 -54l110 -91zM225 551l-5 -3l71 -59l11 23l-60 50zM161 511l-22 -14l71 -59l12 23z" />
    <glyph glyph-name=".null" horiz-adv-x="1231" 
 />
    <glyph glyph-name=".null" horiz-adv-x="1231" 
 />
    <glyph glyph-name="nonmarkingreturn" horiz-adv-x="508" 
 />
    <glyph glyph-name="space" unicode=" " horiz-adv-x="266" 
 />
    <glyph glyph-name="space" unicode="&#xa0;" horiz-adv-x="266" 
 />
    <glyph glyph-name="exclam" unicode="!" horiz-adv-x="462" 
d="M46 253q26 42 67 65q42 24 89 24t89 -24q41 -25 66 -66q25 -40 25 -88q0 -80 -52 -132q-53 -53 -128 -53q-50 0 -91 24q-42 24 -66 67q-24 44 -24 94q0 49 25 89zM50 443l-50 977h412l-50 -977h-312z" />
    <glyph glyph-name="quotedbl" unicode="&#x22;" horiz-adv-x="670" 
 />
    <glyph glyph-name="numbersign" unicode="#" horiz-adv-x="1066" 
 />
    <glyph glyph-name="dollar" unicode="$" horiz-adv-x="831" 
 />
    <glyph glyph-name="percent" unicode="%" horiz-adv-x="1216" 
 />
    <glyph glyph-name="ampersand" unicode="&#x26;" horiz-adv-x="1102" 
 />
    <glyph glyph-name="quotesingle" unicode="'" horiz-adv-x="295" 
 />
    <glyph glyph-name="parenleft" unicode="(" horiz-adv-x="615" 
 />
    <glyph glyph-name="parenright" unicode=")" horiz-adv-x="615" 
 />
    <glyph glyph-name="asterisk" unicode="*" horiz-adv-x="693" 
 />
    <glyph glyph-name="plus" unicode="+" horiz-adv-x="1072" 
 />
    <glyph glyph-name="comma" unicode="," horiz-adv-x="403" 
 />
    <glyph glyph-name="hyphen" unicode="-" horiz-adv-x="682" 
 />
    <glyph glyph-name="hyphen" unicode="&#xad;" horiz-adv-x="682" 
 />
    <glyph glyph-name="period" unicode="." horiz-adv-x="411" 
d="M25 247q26 42 67 65q42 24 89 24t89 -24q41 -25 66 -66q25 -40 25 -88q0 -80 -52 -132q-53 -53 -128 -53q-50 0 -91 24q-42 24 -66 67q-24 44 -24 94q0 49 25 89z" />
    <glyph glyph-name="slash" unicode="/" horiz-adv-x="660" 
 />
    <glyph glyph-name="zero" unicode="0" horiz-adv-x="1088" 
d="M405 1080q-42 -56 -58 -147q-17 -97 -17 -224q0 -126 17 -222q17 -95 58 -148q41 -54 111 -54q193 0 193 424t-193 424q-70 0 -111 -53zM772 1384q104 -67 162 -177q57 -109 81 -237q23 -130 23 -261q0 -179 -45 -347q-45 -169 -161 -282q-118 -113 -316 -113
q-148 0 -251 68q-102 67 -161 180q-58 113 -81 237q-23 127 -23 257t23 259q23 125 81 237q59 113 161 180q101 67 251 67q152 0 256 -68z" />
    <glyph glyph-name="one" unicode="1" horiz-adv-x="544" 
d="M1 1177l-1 239h494v-1417l-330 -1v1175z" />
    <glyph glyph-name="two" unicode="2" horiz-adv-x="1105" 
d="M1055 319v-319h-1055l510 643q76 102 116 176q40 73 40 152q0 73 -54 118q-55 44 -132 44q-67 0 -108 -41t-58 -111l-301 192q102 162 221 221q117 58 268 58q133 0 248 -56q112 -55 180 -161q66 -106 66 -248q0 -99 -34 -188q-33 -87 -83 -163q-48 -71 -115 -152
l-139 -165h430z" />
    <glyph glyph-name="three" unicode="3" horiz-adv-x="1086" 
d="M6 1182q84 135 218 203q133 67 292 67q125 0 227 -49q104 -50 167 -144q62 -97 62 -223q0 -88 -32 -154q-31 -63 -103 -126q61 -34 106 -85q44 -52 69 -117q24 -64 24 -132q0 -119 -45 -205q-48 -88 -125 -142q-82 -57 -177 -82q-99 -26 -204 -26q-91 0 -178 28
q-89 28 -169 81q-82 54 -138 119l231 235q58 -75 114 -109q57 -36 138 -36q85 0 140 43t55 131t-60 118q-61 29 -164 29h-56q-9 -1 -27 -1h-15l-16 -1v248q20 0 49 1h26l27 1q54 2 99 12q44 10 74 43q28 31 28 92q0 82 -48 122q-49 40 -126 40q-36 0 -65 -10q-25 -9 -52 -25
q-20 -14 -54 -44l-15 -13q-5 -5 -13 -12q-16 -14 -21 -19z" />
    <glyph glyph-name="four" unicode="4" horiz-adv-x="1128" 
d="M1078 847h-177v572h-332v-572h-237v572h-332l2 -861h567v-565l332 -2v569h175z" />
    <glyph glyph-name="five" unicode="5" horiz-adv-x="1028" 
d="M173 408q83 -114 242 -123q81 0 143 62q61 61 61 159q0 103 -78 155q-79 52 -184 52q-130 0 -274 -56v762h728l1 -319h-400v-123q20 2 33 3l11 1l10 1q5 1 24 1q460 -44 488 -496q0 -117 -44 -216q-45 -97 -125 -165q-82 -70 -183 -104q-103 -35 -214 -35
q-159 -10 -412 143z" />
    <glyph glyph-name="six" unicode="6" horiz-adv-x="1088" 
d="M961 1422q-192 -190 -295 -300q-97 -103 -169 -211l4 -4q48 20 111 20q127 0 225 -62q97 -64 149 -169t52 -234q0 -152 -63 -271q-64 -118 -180 -183q-116 -64 -265 -64q-152 0 -274 66q-121 65 -189 186q-67 121 -67 282q0 251 146 475q144 221 388 468zM355 361
q25 -45 70 -71q44 -27 97 -27q78 0 132 57t54 138q0 53 -24 99t-67 73t-95 27q-82 0 -137 -58q-56 -59 -56 -141q0 -53 26 -97z" />
    <glyph glyph-name="seven" unicode="7" horiz-adv-x="1001" 
d="M498 1103h-498l3 316h948l-462 -1414l-378 -3z" />
    <glyph glyph-name="eight" unicode="8" horiz-adv-x="1076" 
d="M666 512q-31 44 -162 100q-105 -54 -139 -97q-35 -44 -35 -95q0 -69 50 -116q50 -48 120 -48q87 0 142 43t55 125q0 44 -31 88zM514 895q84 43 110 79q26 35 26 81q0 108 -150 108q-56 0 -94 -37q-39 -37 -39 -90q0 -48 147 -141zM74 1219q38 80 106 132q67 51 157 77
q89 24 188 24q193 0 324 -110q130 -111 130 -308q0 -84 -42 -164q-41 -78 -111 -122q102 -70 152 -151q48 -81 48 -202q0 -100 -44 -182q-42 -79 -118 -136q-74 -54 -167 -82q-90 -28 -187 -28q-130 0 -249 51q-117 49 -189 148q-72 98 -72 229q0 102 55 193q56 92 142 147
q-160 115 -160 297q0 109 37 187z" />
    <glyph glyph-name="nine" unicode="9" horiz-adv-x="1088" 
d="M77 2l296 295q98 103 168 206l-4 4q-45 -19 -111 -19q-129 0 -224 61q-96 61 -149 166q-53 104 -53 229q0 151 64 266q63 116 180 179q116 63 264 63q154 0 275 -64q120 -64 188 -183q67 -118 67 -277q0 -245 -146 -466q-143 -217 -400 -463zM683 1044q-25 43 -70 69
q-44 26 -97 26q-78 0 -132 -56q-54 -55 -54 -135q0 -50 24 -97t67 -72q44 -26 95 -26q82 0 137 57q56 58 56 138q0 52 -26 96z" />
    <glyph glyph-name="colon" unicode=":" horiz-adv-x="411" 
 />
    <glyph glyph-name="semicolon" unicode=";" horiz-adv-x="420" 
 />
    <glyph glyph-name="semicolon" unicode="&#x37e;" horiz-adv-x="420" 
 />
    <glyph glyph-name="less" unicode="&#x3c;" horiz-adv-x="1297" 
 />
    <glyph glyph-name="equal" unicode="=" horiz-adv-x="917" 
 />
    <glyph glyph-name="greater" unicode="&#x3e;" horiz-adv-x="1297" 
 />
    <glyph glyph-name="question" unicode="?" horiz-adv-x="962" 
 />
    <glyph glyph-name="at" unicode="@" horiz-adv-x="2301" 
 />
    <glyph glyph-name="A" unicode="A" horiz-adv-x="1613" 
d="M642 514l140 252l139 -252h-279zM1204 0h359l-781 1439l-782 -1439h359l139 252h567z" />
    <glyph glyph-name="B" unicode="B" horiz-adv-x="1086" 
d="M365 1141v-287h92q85 0 128 39q43 37 43 108q0 75 -54 108q-55 32 -130 32h-79zM0 1419h417q157 0 288 -35q128 -34 209 -118q79 -82 79 -219q0 -104 -52 -181q-52 -78 -141 -116v-5q51 -20 95 -54q42 -33 75 -79q31 -44 49 -99q17 -56 17 -118q0 -178 -132 -286
q-133 -109 -402 -109h-502v1419zM365 575v-296h97q209 0 209 145q0 91 -56 121q-55 30 -158 30h-92z" />
    <glyph glyph-name="C" unicode="C" horiz-adv-x="1252" 
d="M973 431q-40 -50 -86 -81q-86 -59 -187 -59t-187 59t-137 156q-51 98 -51 204t50 204q51 97 137 156q88 59 188 59t188 -59q40 -26 83 -77l229 237q-66 72 -150 124q-160 99 -350 99q-189 0 -350 -99q-162 -101 -256 -270q-94 -170 -94 -374q0 -203 94 -373
q94 -169 256 -269q161 -99 350 -99q190 0 350 99q84 52 152 126z" />
    <glyph glyph-name="D" unicode="D" horiz-adv-x="1307" 
d="M0 1v1419h507q156 0 292 -54q134 -53 239 -149q101 -94 161 -227q58 -131 58 -280t-58 -278q-60 -133 -161 -227q-103 -96 -240 -150q-136 -54 -291 -54h-507zM362 1118v-818h113q86 0 164 33q77 33 135 91q59 59 90 132q31 72 31 154q0 78 -32 156q-33 75 -88 130
q-54 54 -135 89q-79 33 -165 33h-113z" />
    <glyph glyph-name="E" unicode="E" horiz-adv-x="951" 
d="M901 0h-901v1419h901v-301h-553v-246h281l81 -299h-362v-274h553v-299z" />
    <glyph glyph-name="F" unicode="F" horiz-adv-x="909" 
d="M0 2v1417h859v-301h-511v-245h281l81 -299h-362v-573z" />
    <glyph glyph-name="G" unicode="G" horiz-adv-x="1394" 
d="M1098 992q-66 60 -153 95q-86 34 -177 34t-168 -31q-79 -32 -134 -87q-55 -57 -87 -134q-31 -75 -31 -167q0 -129 60 -224q59 -96 161 -145q102 -51 226 -51q50 0 111 12q60 12 89 41v205h-139l-125 299h613v-733q-40 -25 -121 -56q-75 -29 -148 -47q-68 -18 -160 -31
q-87 -12 -165 -12q-202 0 -375 99q-174 100 -274 270q-101 170 -101 373q0 202 101 374q100 169 274 270q173 99 375 99q99 0 202 -23q101 -23 191 -69q92 -47 160 -107z" />
    <glyph glyph-name="H" unicode="H" horiz-adv-x="1196" 
d="M348 580h450v-580h348v1419h-348v-518h-450v518h-348v-1419h348v580z" />
    <glyph glyph-name="I" unicode="I" horiz-adv-x="398" 
d="M0 1418h348v-1418l-348 1v1417z" />
    <glyph glyph-name="J" unicode="J" horiz-adv-x="754" 
d="M367 1421v-1353h-1q-8 -52 -13 -68q-32 -96 -108 -163q-75 -68 -181 -96l-3 -1h-4q-7 -1 -13 -2q-21 -4 -44 -7v-304q82 5 149 21q191 47 334 175t196 299q19 61 23 131h2v1368h-337z" />
    <glyph glyph-name="K" unicode="K" horiz-adv-x="1175" 
d="M333 637v-636h-333v1419h333v-677l414 677h375l-448 -732l451 -687h-376z" />
    <glyph glyph-name="L" unicode="L" horiz-adv-x="959" 
d="M816 0h-816v1418l348 1v-1095h561z" />
    <glyph glyph-name="M" unicode="M" horiz-adv-x="1372" 
d="M648 883l-648 554v-1438h370l1 660l277 -274l298 285v-670l376 -1v1438z" />
    <glyph glyph-name="N" unicode="N" horiz-adv-x="1302" 
d="M1252 -1l-903 725l1 -721h-350v1436l904 -675v655l348 -2v-1418z" />
    <glyph glyph-name="O" unicode="O" horiz-adv-x="1549" 
d="M549 1069q-93 -58 -147 -156q-54 -97 -54 -204t55 -204q55 -99 146 -157q92 -59 201 -59q108 0 200 59q91 58 147 157q54 98 54 204q0 107 -54 204t-146 156q-94 59 -201 59q-109 0 -201 -59zM1125 1353q173 -100 273 -270q101 -172 101 -374q0 -203 -101 -373
q-100 -171 -273 -270q-172 -99 -375 -99q-202 0 -375 99q-174 100 -274 270q-101 170 -101 373q0 202 101 374q100 169 274 270q173 99 375 99q203 0 375 -99z" />
    <glyph glyph-name="P" unicode="P" horiz-adv-x="1046" 
d="M0 0v1419h424q142 0 242 -22q102 -22 176 -74t114 -141t40 -217q0 -105 -40 -188t-111 -142q-72 -60 -169 -91q-99 -32 -205 -32h-122v-512h-349zM349 1118v-305h100q96 0 148 40q51 39 51 114q0 73 -51 112q-52 39 -148 39h-100z" />
    <glyph glyph-name="Q" unicode="Q" horiz-adv-x="1549" 
d="M1097 927q54 -99 54 -204q0 -107 -54 -205q-55 -97 -147 -156q-94 -59 -200 -59q-109 0 -201 59t-146 156q-55 98 -55 205t54 204t146 156q94 59 202 59q107 0 201 -59q90 -57 146 -156zM107 -15q7 -30 18 -64l6 -16q174 -407 584 -257l205 76l-1 2q123 31 164 -67l-1 -1
q1 -1 2 -3l2 -5l1 -4l1 -4h1q11 -39 4 -68l284 104q-10 42 -17 64l-6 16q-105 244 -296 288q37 16 66 34q174 100 274 269q101 172 101 374q0 204 -101 374q-102 171 -274 270t-374 99t-376 -99q-172 -100 -273 -270q-101 -172 -101 -374q0 -201 101 -374q100 -169 271 -268
zM565 -61l1 -2q-123 -31 -164 67l1 1l-2 4l-2 4l-1 4l-1 4h-1q-9 26 -7 51q137 -76 296 -88z" />
    <glyph glyph-name="R" unicode="R" horiz-adv-x="1137" 
d="M348 721q88 0 146 21q56 19 89 67q31 46 31 119q0 110 -66 150q-67 40 -200 40v-397zM0 3v1416h395q168 0 297 -44q127 -43 199 -141q71 -98 71 -253q0 -114 -62 -218q-61 -103 -165 -142l352 -620h-407l-328 636h-4v-634h-348z" />
    <glyph glyph-name="S" unicode="S" horiz-adv-x="972" 
d="M720 1044q-62 59 -109 83q-50 26 -116 26q-49 0 -92 -31q-45 -31 -45 -82q0 -72 98 -114q100 -43 205 -83q106 -42 184 -133q77 -92 77 -270q0 -228 -137 -350q-136 -123 -347 -123q-122 0 -236 42q-115 42 -202 126l188 268q90 -114 237 -114q59 0 113 33q53 32 53 94
q0 73 -99 116l-102 43l-52 21l-53 22q-107 44 -183 133q-76 88 -76 263q0 134 66 234q64 99 171 152q104 52 223 52q110 0 216 -42q108 -44 189 -122z" />
    <glyph glyph-name="T" unicode="T" horiz-adv-x="1095" 
d="M360 1096h-273l-87 323h961l84 -323h-337v-1096h-348v1096z" />
    <glyph glyph-name="U" unicode="U" horiz-adv-x="1216" 
d="M1166 1418v-926q0 -161 -78 -280q-78 -120 -215 -182q-138 -63 -316 -63q-167 0 -292 54q-126 54 -195 166q-70 112 -70 280v952l349 -1v-851q0 -83 19 -143q20 -63 68 -98q47 -37 130 -37q155 0 204 91q48 92 48 263v776z" />
    <glyph glyph-name="V" unicode="V" horiz-adv-x="1424" 
d="M316 1418h-316l687 -1455l687 1455h-313l-374 -742z" />
    <glyph glyph-name="W" unicode="W" horiz-adv-x="1886" 
d="M350 1419l201 -682l354 678l348 -690l213 694h370l-534 -1450h-8l-385 750l-414 -750h-6l-489 1450h350z" />
    <glyph glyph-name="X" unicode="X" horiz-adv-x="1416" 
d="M0 -1l475 735l-461 683l383 -1l287 -418l282 418l400 2l-484 -679l481 -741l-386 1l-301 457l-316 -457h-360z" />
    <glyph glyph-name="Y" unicode="Y" horiz-adv-x="1300" 
d="M1250 1419h-404l-219 -419l-220 419h-407l446 -765v-654h368v657z" />
    <glyph glyph-name="Z" unicode="Z" horiz-adv-x="1298" 
d="M678 1096h-485l-101 323h1156l-674 -1095h614l2 -324h-1190z" />
    <glyph glyph-name="bracketleft" unicode="[" horiz-adv-x="475" 
 />
    <glyph glyph-name="backslash" unicode="\" horiz-adv-x="845" 
 />
    <glyph glyph-name="bracketright" unicode="]" horiz-adv-x="475" 
 />
    <glyph glyph-name="asciicircum" unicode="^" horiz-adv-x="734" 
 />
    <glyph glyph-name="underscore" unicode="_" horiz-adv-x="720" 
 />
    <glyph glyph-name="grave" unicode="`" horiz-adv-x="489" 
 />
    <glyph glyph-name="a" unicode="a" 
d="M455 741q62 34 131 34q71 0 132 -34q62 -35 99 -94t37 -129q0 -106 -80 -183q-79 -76 -188 -76q-108 0 -187 76q-80 77 -80 183q0 70 37 129t99 94zM855 0l317 -3l1 521q0 117 -47 218q-46 98 -130 174q-80 74 -188 114t-222 40q-115 0 -222 -41q-107 -39 -188 -113
q-82 -74 -129 -174q-47 -101 -47 -218q0 -155 81 -281q80 -124 216 -196q136 -71 289 -71q116 0 222 41q15 5 47 19v-30z" />
    <glyph glyph-name="b" unicode="b" 
d="M399 333q79 -77 187 -77q109 0 188 77q80 77 80 184q0 70 -37 128q-37 59 -99 94q-61 35 -132 35q-69 0 -131 -35t-99 -94q-37 -58 -37 -128q0 -107 80 -184zM0 1425l319 1v-422l23 10l23 10q108 39 221 39q114 0 222 -39q105 -39 189 -115q83 -75 129 -175
q47 -101 47 -217q0 -119 -46 -218t-130 -176q-85 -77 -189 -115q-105 -41 -222 -41q-153 0 -289 72q-136 71 -216 196q-80 123 -81 275v915z" />
    <glyph glyph-name="c" unicode="c" horiz-adv-x="1015" 
d="M788 715q-43 36 -94 54q-53 18 -112 18q-110 0 -186 -71q-77 -71 -77 -176q0 -82 33 -147q32 -65 95 -103q61 -39 141 -39q118 0 202 75l175 -222q-38 -40 -106 -71q-69 -31 -142 -46t-135 -15q-174 0 -307 73q-133 74 -204 194q-71 122 -71 261q0 127 43 230
q44 105 121 180q76 73 185 115q108 41 233 41q102 0 199 -32q98 -33 173 -93z" />
    <glyph glyph-name="d" unicode="d" 
d="M854 517q0 70 -37 128q-37 59 -99 94q-61 35 -131 35t-132 -35t-99 -94q-37 -58 -37 -128q0 -107 80 -184q79 -77 188 -77q108 0 187 77q80 77 80 184zM1173 510q-1 -152 -81 -275q-80 -125 -216 -196q-136 -72 -289 -72q-117 0 -222 41q-104 38 -189 115
q-84 77 -130 176t-46 218q0 116 47 217q46 100 129 175q84 76 189 115q108 39 222 39q113 0 221 -39l23 -10l23 -10v422l319 -1v-915z" />
    <glyph glyph-name="e" unicode="e" horiz-adv-x="1174" 
d="M688 741q36 -22 70 -62h-392q34 40 70 62q59 34 126 34t126 -34zM955 910q-80 75 -181 114q-102 40 -212 40t-213 -40q-100 -39 -180 -115q-79 -74 -124 -174q-45 -99 -45 -216q0 -156 78 -281q76 -125 207 -197q128 -71 277 -71q110 0 212 40q76 31 150 91l-172 246
l-2 -3l-3 -3l-3 -4l-2 -2q-76 -76 -180 -76q-103 0 -180 76q-61 61 -73 145h688v2h124l2 17q1 6 1 11v9q0 115 -45 216q-45 102 -124 175z" />
    <glyph glyph-name="f" unicode="f" horiz-adv-x="749" 
d="M177 1025q0 186 64 286q64 99 180 146q114 46 276 46l2 -296q-121 1 -162 -35q-41 -38 -41 -147h125l71 -274h-196v-750h-319v750h-105l-72 274h177z" />
    <glyph glyph-name="g" unicode="g" horiz-adv-x="1167" 
d="M392 332q79 -77 182 -77q104 0 183 77q78 76 78 183q0 68 -36 128t-96 94q-61 34 -129 34t-127 -34q-60 -34 -97 -94q-36 -60 -36 -128q0 -107 78 -183zM1117 509l-1 -542v-74q0 -197 -140 -337q-65 -65 -174 -103q-102 -36 -202 -36h-56q-228 5 -363 139
q-91 93 -110 163l305 177q5 -79 63 -134t138 -55q63 0 115 36q51 35 73 90l1 4l2 5l4 14q4 12 5 24v3l1 3l1 4v6h1v105l-8 -4l-8 -3q-100 -41 -210 -41q-146 0 -273 73q-127 71 -204 199t-77 285q0 119 45 220q43 100 122 178q77 74 178 115q102 41 209 41q186 0 276 -48
q287 -123 287 -507z" />
    <glyph glyph-name="h" unicode="h" horiz-adv-x="1009" 
d="M320 1420v-456q46 47 114 74q69 27 140 27q385 0 385 -451v-614l-320 -1v593q0 92 -42 138t-118 46q-74 0 -116 -46q-43 -46 -43 -138v-592l-320 -2v1421z" />
    <glyph glyph-name="i" unicode="i" horiz-adv-x="382" 
d="M331 1023v-1025h-319v1024zM310 1228q-22 -37 -60 -60t-84 -23t-83 22q-38 23 -60 61q-23 40 -23 85q0 46 22 84q24 39 61 61t83 22t84 -22q37 -22 60 -61q22 -38 22 -84q0 -48 -22 -85z" />
    <glyph glyph-name="j" unicode="j" horiz-adv-x="599" 
d="M0 -92q82 0 128 12q47 11 71 50q24 38 24 114v939h319v-970q0 -112 -20 -194q-22 -82 -70 -133q-50 -55 -135 -80q-85 -27 -217 -27zM527 1228q-22 -37 -60 -60t-84 -23t-83 22q-38 23 -60 61q-23 40 -23 85q0 46 22 84q24 39 61 61t83 22t84 -22q37 -22 60 -61
q22 -38 22 -84q0 -48 -22 -85z" />
    <glyph glyph-name="k" unicode="k" horiz-adv-x="1145" 
d="M0 0v1418l320 1v-784h4l331 388h375l-370 -439l435 -584h-399l-376 502v-502h-320z" />
    <glyph glyph-name="l" unicode="l" horiz-adv-x="369" 
d="M0 1419l319 1v-1418l-319 -4v1421z" />
    <glyph glyph-name="m" unicode="m" horiz-adv-x="1538" 
d="M906 629v-630h-321v630q-8 141 -121 145h-18q-122 -4 -122 -169v-606h-320v606q0 435 442 459h18q176 -10 282 -84q105 74 281 84h18q442 -24 442 -459v-606h-320v606q0 165 -122 169h-18q-113 -4 -121 -145z" />
    <glyph glyph-name="n" unicode="n" horiz-adv-x="952" 
d="M460 775q122 -5 122 -170v-605h320v605q0 437 -442 459h-18q-442 -22 -442 -459v-605h320v605q0 165 122 170h18z" />
    <glyph glyph-name="o" unicode="o" 
d="M297 39q-136 72 -216 197q-81 126 -81 282q0 117 47 218t129 175q83 75 189 115q108 40 221 40q114 0 222 -40q105 -38 189 -114q83 -76 129 -176q47 -101 47 -218q0 -119 -46 -218q-46 -100 -130 -177q-85 -76 -189 -115q-105 -41 -222 -41q-153 0 -289 72zM399 334
q79 -77 187 -77q109 0 188 77q80 77 80 184q0 70 -37 129t-99 94q-61 35 -132 35q-69 0 -131 -35t-99 -94t-37 -129q0 -107 80 -184z" />
    <glyph glyph-name="p" unicode="p" 
d="M399 699q79 77 187 77q109 0 188 -77q80 -78 80 -184q0 -70 -37 -128q-37 -59 -99 -94t-132 -35t-131 35q-62 35 -99 94q-37 57 -37 128q0 107 80 184zM0 -393l319 -1v422l23 -10l23 -10q108 -39 221 -39q115 0 222 39q106 39 189 115q83 75 129 175q47 101 47 217
q0 119 -46 218t-130 176q-85 77 -189 115q-105 41 -222 41q-153 0 -289 -72q-136 -71 -216 -196q-80 -122 -81 -275v-915z" />
    <glyph glyph-name="q" unicode="q" 
d="M854 515q0 -71 -37 -128q-37 -59 -99 -94q-61 -35 -131 -35t-132 35t-99 94q-37 58 -37 128q0 106 80 184q79 77 188 77q108 0 187 -77q80 -77 80 -184zM1173 522q-1 153 -81 275q-80 125 -216 196q-136 72 -289 72q-117 0 -222 -41q-104 -38 -189 -115
q-84 -77 -130 -176t-46 -218q0 -116 47 -217q46 -100 129 -175q83 -76 189 -115q108 -39 222 -39q113 0 221 39l23 10l23 10v-422l319 1v915z" />
    <glyph glyph-name="r" unicode="r" horiz-adv-x="575" 
d="M525 1059q-32 5 -65 6h-18q-442 -22 -442 -459v-606h320v606q0 165 122 170h18q40 -2 65 -19v302z" />
    <glyph glyph-name="s" unicode="s" horiz-adv-x="884" 
d="M162 322q95 -95 232 -95q143 0 143 84q0 44 -79 65q-56 13 -178 45q-99 26 -167 96q-67 69 -67 212q0 110 55 186q56 76 145 112q91 37 199 37q61 0 124 -17q68 -21 122 -52q59 -33 104 -74l-176 -175q-77 58 -168 58q-109 0 -109 -61q0 -55 81 -77q89 -24 179 -45
q99 -25 165 -92q67 -68 67 -214q0 -109 -58 -188q-58 -80 -155 -119q-97 -41 -201 -41q-87 0 -157 14q-70 13 -131 44q-63 31 -132 83z" />
    <glyph glyph-name="t" unicode="t" horiz-adv-x="834" 
d="M211 751h-211l72 274h139v394l319 -2v-392h212l-71 -274h-141v-339q0 -136 170 -136q55 0 84 13l-92 -318q-25 -4 -49 -4q-143 0 -238 46q-96 46 -145 139q-49 92 -49 235v364z" />
    <glyph glyph-name="u" unicode="u" horiz-adv-x="952" 
d="M320 428v596h-320v-596q0 -435 442 -459h18q442 24 442 459v596h-320v-596q0 -165 -122 -169h-18q-122 4 -122 169z" />
    <glyph glyph-name="v" unicode="v" horiz-adv-x="1109" 
d="M1059 1023l-539 -1065l-520 1063l325 2l199 -454l196 454h339z" />
    <glyph glyph-name="w" unicode="w" horiz-adv-x="1538" 
d="M585 403v620h321v-620q8 -141 121 -145h18q122 4 122 169v596h320v-596q0 -435 -442 -459h-18q-176 10 -282 84q-105 -74 -281 -84h-18q-442 24 -442 459v596h320v-596q0 -165 122 -169h18q113 4 121 145z" />
    <glyph glyph-name="x" unicode="x" horiz-adv-x="1176" 
d="M0 -1l376 532l-351 490l351 2l186 -284l199 284l345 -1l-370 -495l390 -525l-381 -2l-195 296l-211 -296z" />
    <glyph glyph-name="y" unicode="y" horiz-adv-x="1038" 
d="M670 -118h-1v-10q-1 -3 -1 -5q-1 -14 -5 -23l-2 -7l-2 -7l-2 -5l-1 -3q-23 -55 -69 -86q-49 -34 -108 -34q-76 0 -131 52t-59 128l-289 -169q20 -68 104 -154q129 -128 343 -132h53q96 0 191 34q105 38 165 98q132 134 132 320v1144l-320 -1v-574q0 -90 -42 -137
q-44 -47 -117 -47q-76 0 -118 46q-42 47 -42 138v575h-320v-597q0 -501 473 -451q77 7 168 44v-137z" />
    <glyph glyph-name="z" unicode="z" horiz-adv-x="1035" 
d="M536 289h449l-77 -289h-908l452 756h-370l64 268h825z" />
    <glyph glyph-name="germandbls" unicode="&#xdf;" horiz-adv-x="1131" 
d="M0 -1l311 -1l-1 969v83h1v10q1 3 1 5q1 14 5 23l6 22q23 55 67 86q47 34 106 34q187 -10 198 -193q20 -204 -252 -204v-235l15 1h13q17 0 25 1h52q95 0 150 -28t55 -111t-50 -124q-52 -41 -129 -41q-74 0 -126 34q-17 11 -32 23v-332q81 -26 160 -26q100 0 188 25
q88 23 163 77q72 53 114 135q41 82 41 194q0 65 -22 125t-63 110q-40 48 -97 81q66 60 95 119q29 63 29 146q0 121 -43 203q-43 81 -120 163q-124 129 -334 132h-51q-93 0 -186 -34q-102 -38 -159 -98q-129 -133 -129 -320z" />
    <glyph glyph-name="uni0401" unicode="&#x401;" horiz-adv-x="951" 
d="M348 299v274h362l-81 299h-281v246h553v301h-901v-1419h901v299h-553zM712 1539q51 0 94 24t67 66q24 41 24 91q0 75 -53 128q-52 52 -132 52q-49 0 -88 -25q-42 -27 -65 -66q-25 -41 -25 -89q0 -47 24 -89q23 -41 65 -67q40 -25 89 -25zM182 1539q50 0 94 24
q43 24 67 66q24 41 24 91q0 75 -53 128q-52 52 -132 52q-48 0 -88 -25q-41 -27 -65 -66q-25 -41 -25 -89q0 -47 24 -89q23 -41 65 -67q39 -25 89 -25z" />
    <glyph glyph-name="uni0402" unicode="&#x402;" horiz-adv-x="1511" 
 />
    <glyph glyph-name="uni0403" unicode="&#x403;" horiz-adv-x="959" 
 />
    <glyph glyph-name="uni0404" unicode="&#x404;" horiz-adv-x="1252" 
 />
    <glyph glyph-name="uni0405" unicode="&#x405;" horiz-adv-x="972" 
 />
    <glyph glyph-name="uni0406" unicode="&#x406;" horiz-adv-x="398" 
 />
    <glyph glyph-name="uni0407" unicode="&#x407;" horiz-adv-x="943" 
 />
    <glyph glyph-name="uni0408" unicode="&#x408;" horiz-adv-x="672" 
 />
    <glyph glyph-name="uni0409" unicode="&#x409;" horiz-adv-x="2034" 
 />
    <glyph glyph-name="uni040A" unicode="&#x40a;" horiz-adv-x="1894" 
 />
    <glyph glyph-name="uni040B" unicode="&#x40b;" horiz-adv-x="1441" 
 />
    <glyph glyph-name="uni040C" unicode="&#x40c;" horiz-adv-x="1168" 
 />
    <glyph glyph-name="uni040D" unicode="&#x40d;" horiz-adv-x="1302" 
 />
    <glyph glyph-name="uni040E" unicode="&#x40e;" horiz-adv-x="1501" 
 />
    <glyph glyph-name="uni040F" unicode="&#x40f;" horiz-adv-x="1196" 
 />
    <glyph glyph-name="uni0410" unicode="&#x410;" horiz-adv-x="1613" 
d="M642 514l140 252l139 -252h-279zM1204 0h359l-781 1439l-782 -1439h359l139 252h567z" />
    <glyph glyph-name="uni0411" unicode="&#x411;" horiz-adv-x="1102" 
d="M338 320h213q148 0 152 122h-1q1 2 1 9v5l-1 4h1q-4 121 -152 121h-213v-261zM343 1419h493l93 -324h-581v-193h245q436 0 459 -442v-18q-23 -442 -459 -442h-592v1h-1v1420z" />
    <glyph glyph-name="uni0412" unicode="&#x412;" horiz-adv-x="1086" 
d="M365 1141v-287h92q85 0 128 39q43 37 43 108q0 75 -54 108q-55 32 -130 32h-79zM0 1419h417q157 0 288 -35q128 -34 209 -118q79 -82 79 -219q0 -104 -52 -181q-52 -78 -141 -116v-5q51 -20 95 -54q42 -33 75 -79q31 -44 49 -99q17 -56 17 -118q0 -178 -132 -286
q-133 -109 -402 -109h-502v1419zM365 575v-296h97q209 0 209 145q0 91 -56 121q-55 30 -158 30h-92z" />
    <glyph glyph-name="uni0413" unicode="&#x413;" horiz-adv-x="959" 
d="M909 1095h-561v-1095l-348 1v1418h816z" />
    <glyph glyph-name="uni0414" unicode="&#x414;" horiz-adv-x="1618" 
d="M966 319v768h-292v-192q-27 -424 -106 -576h398zM1313 320h255v-644h-312v319h-944v-319h-312v644h171q137 76 170 708v386h967v-2h5v-1092z" />
    <glyph glyph-name="uni0415" unicode="&#x415;" horiz-adv-x="951" 
d="M901 0h-901v1419h901v-301h-553v-246h281l81 -299h-362v-274h553v-299z" />
    <glyph glyph-name="uni0416" unicode="&#x416;" horiz-adv-x="1955" 
d="M1118 1410h-331v-517q-55 9 -101.5 68t-65.5 122l-5 16l-5 17q-6 19 -12 35q-15 41 -34 75q-50 88 -136 136q-75 43 -179 53q-39 4 -87 4q-18 0 -41 -1l-19 -1h-19l-12 -1l38 -301q185 -22 224.5 -177t158.5 -243l-492 -695h374l407 556h6v-556h331v556h6l407 -556h374
l-492 695q119 88 158.5 243t224.5 177l38 301l-12 1h-19l-19 1q-23 1 -41 1q-48 0 -87 -4q-104 -10 -179 -53q-86 -48 -136 -136q-19 -34 -34 -75q-6 -16 -12 -35l-5 -17l-5 -16q-19 -63 -65.5 -122t-101.5 -68v517z" />
    <glyph glyph-name="uni0417" unicode="&#x417;" horiz-adv-x="1086" 
d="M6 1182q84 135 218 203q133 67 292 67q125 0 227 -49q104 -50 167 -144q62 -97 62 -223q0 -88 -32 -154q-31 -63 -103 -126q61 -34 106 -85q44 -52 69 -117q24 -64 24 -132q0 -119 -45 -205q-48 -88 -125 -142q-82 -57 -177 -82q-99 -26 -204 -26q-91 0 -178 28
q-89 28 -169 81q-82 54 -138 119l231 235q58 -75 114 -109q57 -36 138 -36q85 0 140 43t55 131t-60 118q-61 29 -164 29h-56q-9 -1 -27 -1h-15l-16 -1v248q20 0 49 1h26l27 1q54 2 99 12q44 10 74 43q28 31 28 92q0 82 -48 122q-49 40 -126 40q-36 0 -65 -10q-25 -9 -52 -25
q-20 -14 -54 -44l-15 -13q-5 -5 -13 -12q-16 -14 -21 -19z" />
    <glyph glyph-name="uni0418" unicode="&#x418;" horiz-adv-x="1302" 
d="M0 1418l4 -1418l899 735l-1 -731h350v1436l-904 -675v655z" />
    <glyph glyph-name="uni0419" unicode="&#x419;" horiz-adv-x="1302" 
d="M0 1418l4 -1418l899 735l-1 -731h350v1436l-904 -675v655zM776 1884q-11 -55 -48 -87q-39 -32 -100 -32q-63 0 -102 32q-39 31 -49 87h-240q1 -100 50 -178q50 -81 136 -124q88 -44 199 -44q175 0 276 90q100 89 117 256h-239z" />
    <glyph glyph-name="uni041A" unicode="&#x41a;" horiz-adv-x="1168" 
d="M331 1410h-331v-1410h331v556h6l407 -556h374l-492 695q119 88 158.5 243t224.5 177l38 301l-12 1h-19l-19 1q-23 1 -41 1q-48 0 -87 -4q-104 -10 -179 -53q-86 -48 -136 -136q-19 -34 -34 -75q-6 -16 -12 -35l-5 -17l-5 -16q-19 -63 -65.5 -122t-101.5 -68v517z" />
    <glyph glyph-name="uni041B" unicode="&#x41b;" horiz-adv-x="1330" 
d="M569 1071v-637q0 -113 -21 -194q-22 -82 -73 -133q-52 -55 -142 -80q-90 -27 -228 -27l-105 289q85 0 134 12q49 10 75 50q26 38 26 114v954h1040v-2h5v-1416l-347 -1v1h-1v1070h-363z" />
    <glyph glyph-name="uni041C" unicode="&#x41c;" horiz-adv-x="1375" 
d="M651 883l-651 554v-1435l373 -3l1 660l277 -274l298 285v-668l376 -3v1438z" />
    <glyph glyph-name="uni041D" unicode="&#x41d;" horiz-adv-x="1196" 
d="M348 580h450v-580h348v1419h-348v-518h-450v518h-348v-1419h348v580z" />
    <glyph glyph-name="uni041E" unicode="&#x41e;" horiz-adv-x="1549" 
d="M549 1069q-93 -58 -147 -156q-54 -97 -54 -204t55 -204q55 -99 146 -157q92 -59 201 -59q108 0 200 59q91 58 147 157q54 98 54 204q0 107 -54 204t-146 156q-94 59 -201 59q-109 0 -201 -59zM1125 1353q173 -100 273 -270q101 -172 101 -374q0 -203 -101 -373
q-100 -171 -273 -270q-172 -99 -375 -99q-202 0 -375 99q-174 100 -274 270q-101 170 -101 373q0 202 101 374q100 169 274 270q173 99 375 99q203 0 375 -99z" />
    <glyph glyph-name="uni041F" unicode="&#x41f;" horiz-adv-x="1196" 
d="M348 1100h450v-1100h348v1419h-1146v-1419h348v1100z" />
    <glyph glyph-name="uni0420" unicode="&#x420;" horiz-adv-x="1046" 
d="M0 0v1419h424q142 0 242 -22q102 -22 176 -74t114 -141t40 -217q0 -105 -40 -188t-111 -142q-72 -60 -169 -91q-99 -32 -205 -32h-122v-512h-349zM349 1118v-305h100q96 0 148 40q51 39 51 114q0 73 -51 112q-52 39 -148 39h-100z" />
    <glyph glyph-name="uni0421" unicode="&#x421;" horiz-adv-x="1252" 
d="M973 431q-40 -50 -86 -81q-86 -59 -187 -59t-187 59t-137 156q-51 98 -51 204t50 204q51 97 137 156q88 59 188 59t188 -59q40 -26 83 -77l229 237q-66 72 -150 124q-160 99 -350 99q-189 0 -350 -99q-162 -101 -256 -270q-94 -170 -94 -374q0 -203 94 -373
q94 -169 256 -269q161 -99 350 -99q190 0 350 99q84 52 152 126z" />
    <glyph glyph-name="uni0422" unicode="&#x422;" horiz-adv-x="1095" 
d="M360 1096h-273l-87 323h961l84 -323h-337v-1096h-348v1096z" />
    <glyph glyph-name="uni0423" unicode="&#x423;" horiz-adv-x="1501" 
d="M1065 1419l-342 -639l-340 639h-383l554 -981q-144 -197 -371 -140l35 -310q81 -44 235 -13q262 52 491 439l507 1005h-386z" />
    <glyph glyph-name="uni0424" unicode="&#x424;" horiz-adv-x="1535" 
d="M568 201q-42 5 -84 13q-125 22 -237 81q-114 59 -180 161q-67 101 -67 251q0 151 68 256q67 103 177 162q109 57 237 81q43 8 86 13v200h348v-201q88 -11 174 -34q168 -45 282 -161q113 -118 113 -316q0 -149 -68 -251q-67 -102 -180 -161t-237 -81q-42 -8 -84 -13v-201
l-348 1v200zM916 979v-540l20 6q82 25 129 89q47 62 47 170q0 216 -196 275zM568 439v540q-196 -59 -196 -275q0 -108 46 -170q49 -65 129 -89z" />
    <glyph glyph-name="uni0425" unicode="&#x425;" horiz-adv-x="1416" 
d="M0 -1l475 735l-461 683l383 -1l287 -418l282 418l400 2l-484 -679l481 -741l-386 1l-301 457l-316 -457h-360z" />
    <glyph glyph-name="uni0426" unicode="&#x426;" horiz-adv-x="1359" 
d="M997 -324h312v473h-163v1270h-348v-1100h-450v1100h-348v-1419h997v-324z" />
    <glyph glyph-name="uni0427" unicode="&#x427;" horiz-adv-x="1060" 
d="M673 -1l337 1v1418l-337 -1v-431q0 -91 -44 -138q-47 -47 -123 -47q-81 0 -125 46q-44 47 -44 139v432h-337v-454q0 -483 498 -453q128 0 177 44z" />
    <glyph glyph-name="uni0428" unicode="&#x428;" horiz-adv-x="1596" 
d="M1546 0v1419h-348v-1100h-250v1100h-350v-1100h-250v1100h-348v-1419h1546z" />
    <glyph glyph-name="uni0429" unicode="&#x429;" horiz-adv-x="1768" 
d="M1406 -324h312v473h-172v1270h-348v-1100h-250v1100h-350v-1100h-250v1100h-348v-1419h1406v-324z" />
    <glyph glyph-name="uni042A" unicode="&#x42a;" horiz-adv-x="1461" 
d="M359 1419v2l343 -2h7l-1 -323v-194h244q436 0 459 -442v-18q-23 -442 -459 -442h-592v1h-1v1095h-272l-87 323h359zM702 320h220q153 0 153 130.5t-153 130.5h-220v-261z" />
    <glyph glyph-name="uni042B" unicode="&#x42b;" horiz-adv-x="1537" 
d="M0 1h1v-1h592q436 0 459 442v18q-23 442 -459 442h-245v515h-5v2l-343 2v-1420zM348 581h220q153 0 153 -130.5t-153 -130.5h-220v261zM1139 1419h348v-1419l-348 1v1418z" />
    <glyph glyph-name="uni042C" unicode="&#x42c;" horiz-adv-x="1102" 
d="M0 1h1v-1h592q436 0 459 442v18q-23 442 -459 442h-245v515h-5v2l-343 2v-1420zM348 581h220q153 0 153 -130.5t-153 -130.5h-220v261z" />
    <glyph glyph-name="uni042D" unicode="&#x42d;" horiz-adv-x="1252" 
d="M852 566q-11 -30 -26 -60q-51 -97 -137 -156t-187 -59t-187 59q-46 31 -86 81l-229 -237q68 -74 152 -126q160 -99 350 -99q189 0 350 99q162 100 256 269q94 170 94 373q0 204 -94 374q-94 169 -256 270q-161 99 -350 99q-190 0 -350 -99q-84 -52 -150 -124l229 -237
q43 51 83 77q88 59 188 59t188 -59q86 -59 137 -156q20 -39 32 -80h-494v-268h487z" />
    <glyph glyph-name="uni042E" unicode="&#x42e;" horiz-adv-x="2034" 
d="M1034 1069q-93 -58 -147 -156q-54 -97 -54 -204t55 -204q55 -99 146 -157q92 -59 201 -59q108 0 200 59q91 58 147 157q54 98 54 204q0 107 -54 204t-146 156q-94 59 -201 59q-109 0 -201 -59zM502 870q25 112 84 213q100 169 274 270q173 99 375 99q203 0 375 -99
q173 -100 273 -270q101 -172 101 -374q0 -203 -101 -373q-100 -171 -273 -270q-172 -99 -375 -99q-202 0 -375 99q-174 100 -274 270q-67 113 -90 240h-148v-576l-348 1v1418h348v-549h154z" />
    <glyph glyph-name="uni042F" unicode="&#x42f;" horiz-adv-x="1137" 
d="M739 1118q-133 0 -200 -40q-66 -40 -66 -150q0 -73 31 -119q33 -48 89 -67q59 -21 146 -21v397zM739 3v634h-4l-328 -636h-407l352 620q-104 39 -165 142q-62 104 -62 218q0 155 71 253q72 98 199 141q129 44 297 44h395v-1416h-348z" />
    </font>
</defs>
</svg>
